(Instrumental Rock / Classical) Video Game Orchestra (VGO) - Rockestral Game Music - 2011 [FLAC (tracks+.cue) lossless] 

Цитировать
Video Game Orchestra - Rockestral Game Music- Жанр: Instrumental Rock / Classical
Год выпуска диска: 2011
Производитель диска: USA
Аудио кодек: FLAC
Тип рипа: tracks+.cue
Битрейт аудио: lossless
Продолжительность: 00:39:24
-01 - Fight - Bombing Mission (03:31)
02 - Theme of Laura (03:22)
03 - The End Begins to Rock (04:09)
04 - Super Mario World (Big Band Version) (04:02)
05 - Vampire Killer (04:31)
06 - Kingdom Hearts Suite (Overture, Dearly Beloved, Passion, Hikari) (10:24)
07 - Chrono Cross ~ Time's Scar ~ (Studio Live) (03:32)
08 - Radical Dreamers (Studio Live) (05:54)
-Источник: what.cd

LOG

Exact Audio Copy V1.0 beta 1 from 15. November 2010
EAC extraction logfile from 15. March 2011, 10:34
Video Game Orchestra / Rockestral Game Music
Used drive : HL-DT-STRW/DVD GCC-M10N Adapter: 1 ID: 0
Read mode : SecureUtilize accurate stream : YesDefeat audio cache : YesMake use of C2 pointers : No
Read offset correction : 102Overread into Lead-In and Lead-Out : NoFill up missing offset samples with silence : YesDelete leading and trailing silent blocks : NoNull samples used in CRC calculations : YesUsed interface : Native Win32 interface for Win NT & 2000Gap handling : Appended to previous track
Used output format : User Defined EncoderSelected bitrate : 128 kBit/sQuality : HighAdd ID3 tag : NoCommand line compressor : C:\Program Files (x86)\Exact Audio Copy\Flac\flac.exeAdditional command line options : -V -8 -T "artist=%a" -T "title=%t" -T "album=%g" -T "date=%y" -T "tracknumber=%n" -T "genre=%m" %s
TOC of the extracted CD
Track | Start | Length | Start sector | End sector --------------------------------------------------------- 1 | 0:00.00 | 3:30.66 | 0 | 15815 2 | 3:30.66 | 3:21.45 | 15816 | 30935 3 | 6:52.36 | 4:08.58 | 30936 | 49593 4 | 11:01.19 | 4:02.03 | 49594 | 67746 5 | 15:03.22 | 4:31.28 | 67747 | 88099 6 | 19:34.50 | 10:23.65 | 88100 | 134889 7 | 29:58.40 | 3:31.60 | 134890 | 150774 8 | 33:30.25 | 5:54.36 | 150775 | 177360
Track 1
Filename C:\wave dumps\01 - Fight - Bombing Mission.wav
Pre-gap length 0:00:02.00
Peak level 99.9 % Extraction speed 1.2 X Track quality 100.0 % Test CRC 141A7AB6 Copy CRC 141A7AB6 Track not present in AccurateRip database Copy OK
Track 2
Filename C:\wave dumps\02 - Theme of Laura.wav
Pre-gap length 0:00:02.98
Peak level 81.3 % Extraction speed 1.3 X Track quality 100.0 % Test CRC E1936D35 Copy CRC E1936D35 Track not present in AccurateRip database Copy OK
Track 3
Filename C:\wave dumps\03 - The End Begins to Rock.wav
Pre-gap length 0:00:02.98
Peak level 100.0 % Extraction speed 1.4 X Track quality 100.0 % Test CRC 762A0CCF Copy CRC 762A0CCF Track not present in AccurateRip database Copy OK
Track 4
Filename C:\wave dumps\04 - Super Mario World (Big Band Version).wav
Pre-gap length 0:00:02.98
Peak level 73.2 % Extraction speed 1.5 X Track quality 100.0 % Test CRC D5DEA04B Copy CRC D5DEA04B Track not present in AccurateRip database Copy OK
Track 5
Filename C:\wave dumps\05 - Vampire Killer.wav
Pre-gap length 0:00:02.98
Peak level 99.9 % Extraction speed 1.7 X Track quality 100.0 % Test CRC 9B2BDBCE Copy CRC 9B2BDBCE Track not present in AccurateRip database Copy OK
Track 6
Filename C:\wave dumps\06 - Kingdom Hearts Suite (Overture, Dearly Beloved, Passion, Hikari).wav
Pre-gap length 0:00:02.98
Peak level 100.0 % Extraction speed 2.0 X Track quality 100.0 % Test CRC 9197F894 Copy CRC 9197F894 Track not present in AccurateRip database Copy OK
Track 7
Filename C:\wave dumps\07 - Chrono Cross ~ Time's Scar ~ (Studio Live).wav
Pre-gap length 0:00:02.98
Peak level 99.9 % Extraction speed 1.9 X Track quality 100.0 % Test CRC C66C5771 Copy CRC C66C5771 Track not present in AccurateRip database Copy OK
Track 8
Filename C:\wave dumps\08 - Radical Dreamers (Studio Live).wav
Pre-gap length 0:00:02.98
Peak level 79.9 % Extraction speed 2.2 X Track quality 100.0 % Test CRC 8C0BC080 Copy CRC 8C0BC080 Track not present in AccurateRip database Copy OK
None of the tracks are present in the AccurateRip database
No errors occurred
End of status report
==== Log checksum 3595906479818B8AF8F6FE6850F2751469A32B14925BA37058D1930E6D4DB669 ====

CUE

REM GENRE "Instrumental Rock"REM DATE 2011REM DISCID 4A093C08REM COMMENT "ExactAudioCopy v1.0b1"FILE "01 - Fight - Bombing Mission.wav" WAVE  TRACK 01 AUDIO    FLAGS DCP    INDEX 01 00:00:00  TRACK 02 AUDIO    FLAGS DCP    INDEX 00 03:27:67FILE "02 - Theme of Laura.wav" WAVE    INDEX 01 00:00:00  TRACK 03 AUDIO    FLAGS DCP    INDEX 00 03:18:46FILE "03 - The End Begins to Rock.wav" WAVE    INDEX 01 00:00:00  TRACK 04 AUDIO    FLAGS DCP    INDEX 00 04:05:59FILE "04 - Super Mario World (Big Band Version).wav" WAVE    INDEX 01 00:00:00  TRACK 05 AUDIO    FLAGS DCP    INDEX 00 03:59:04FILE "05 - Vampire Killer.wav" WAVE    INDEX 01 00:00:00  TRACK 06 AUDIO    FLAGS DCP    INDEX 00 04:28:29FILE "06 - Kingdom Hearts Suite (Overture, Dearly Beloved, Passion, Hikari).wav" WAVE    INDEX 01 00:00:00  TRACK 07 AUDIO    FLAGS DCP    INDEX 00 10:20:66FILE "07 - Chrono Cross ~ Time's Scar ~ (Studio Live).wav" WAVE    INDEX 01 00:00:00  TRACK 08 AUDIO    FLAGS DCP    INDEX 00 03:28:61FILE "08 - Radical Dreamers (Studio Live).wav" WAVE    INDEX 01 00:00:00

CUE (corrected)

REM GENRE Instrumental RockREM DATE 2011REM DISCID 4A093C08REM COMMENT "ExactAudioCopy v1.0b1"PERFORMER "Video Game Orchestra"TITLE "Rockestral Game Music"FILE "01 - Fight - Bombing Mission.wav" WAVE  TRACK 01 AUDIO    TITLE "Fight - Bombing Mission"    PERFORMER "Video Game Orchestra"    INDEX 01 00:00:00  TRACK 02 AUDIO    TITLE "Theme of Laura"    PERFORMER "Video Game Orchestra"    INDEX 00 03:27:67FILE "02 - Theme of Laura.wav" WAVE    INDEX 01 00:00:00  TRACK 03 AUDIO    TITLE "The End Begins to Rock"    PERFORMER "Video Game Orchestra"    INDEX 00 03:18:46FILE "03 - The End Begins to Rock.wav" WAVE    INDEX 01 00:00:00  TRACK 04 AUDIO    TITLE "Super Mario World (Big Band Version)"    PERFORMER "Video Game Orchestra"    INDEX 00 04:05:59FILE "04 - Super Mario World (Big Band Version).wav" WAVE    INDEX 01 00:00:00  TRACK 05 AUDIO    TITLE "Vampire Killer"    PERFORMER "Video Game Orchestra"    INDEX 00 03:59:04FILE "05 - Vampire Killer.wav" WAVE    INDEX 01 00:00:00  TRACK 06 AUDIO    TITLE "Kingdom Hearts Suite (Overture, Dearly Beloved, Passion, Hikari)"    PERFORMER "Video Game Orchestra"    INDEX 00 04:28:29FILE "06 - Kingdom Hearts Suite (Overture, Dearly Beloved, Passion, Hikari).wav" WAVE    INDEX 01 00:00:00  TRACK 07 AUDIO    TITLE "Chrono Cross ~ Time's Scar ~ (Studio Live)"    PERFORMER "Video Game Orchestra"    INDEX 00 10:20:66FILE "07 - Chrono Cross ~ Time's Scar ~ (Studio Live).wav" WAVE    INDEX 01 00:00:00  TRACK 08 AUDIO    TITLE "Radical Dreamers (Studio Live)"    PERFORMER "Video Game Orchestra"    INDEX 00 03:28:61FILE "08 - Radical Dreamers (Studio Live).wav" WAVE    INDEX 01 00:00:00
-
Вы не можете начинать темы
Вы не можете отвечать на сообщения
Вы не можете редактировать свои сообщения
Вы не можете удалять свои сообщения
Вы не можете голосовать в опросах
Вы не можете прикреплять файлы к сообщениям
Вы можете скачивать файлы
!ВНИМАНИЕ!

Сайт не предоставляет электронные версии произведений, а занимается лишь коллекционированием и каталогизацией ссылок, присылаемых и публикуемых на форуме нашими читателями. Если вы являетесь правообладателем какого-либо представленного материала и не желаете, чтобы ссылка на него находилась в нашем каталоге, свяжитесь с нами, и мы незамедлительно удалим ее. Файлы для обмена на трекере предоставлены пользователями сайта, и администрация не несет ответственности за их содержание. Просьба не заливать файлы, защищенные авторскими правами, а также файлы нелегального содержания!

Искали программы, игры, дополнения, музыка mp3, аниме, аудио книги, журналы? Добро пожаловать на свободный торрент трекер Torrents, у нас можно скачать бесплатно, без смс и регистрации и прочих ограничений лучшие, отборные сборки программ, игр. Скачать торрентом не составит труда даже не опытному пользователю. Раздачи ежедневно обновляются, только лучшие и качественные раздачи, подробные описания и скриншоты. Огромная коллекция программ для работы со звуком, графикой, дизайном, а так же множество плагинов и инструментов к ним с подробной инструкцией и рекомендациями. Прошивки для навигаторов, карты. Разнообразные игры, для Windows, Linux. В коллекцие есть и старые игры любых жанров, Rpg, Action, Shooter, strategy Множество дополнений, модификаций, сценариев для популярных игр в жанре экш, рпг, гонки, стратегии, логические игры. Множество аддонов и сценариев для Microsoft Flight Simulator Большая коллекция книг, учебников. Если нет возможности купить печатное издание - смело скачивайте цифровую версию книги или, быть может, журнала. Не любите читать - можно загрузить бесплатно аудикнигу. Для веб дизайнеров и программистов так же найдется множество специализированного софта, таких как: редакторы с подсветкой, среды программирования, компоненты, системы управления базами данных, разнообразные скрипты и шаблоны. Не так давно у нас появился материал для автолюбителей и владельцев мото - оригинальные и неоригинальные каталоги запчастей, книги и журналы по ремонту и обслуживанию, видеоуроки, статьи по чип тюнингу, прошивкам. Процедура получения контента элементарная, достаточно просто скачать торрент файл и добавить его в загрузку в вашем торрент клиенте. Если у вас нет специального торрент клиента, вы можете его скачать у нас.