Сверхъестественное / Supernatural / Сезон: 7 / Серии: 1-23 (23) (Роберт Сингер, Филип Сгриккиа) [2011-2012, США, мистика, ужасы, триллер, фэнтези, драма, детектив, BDRip 720p] MVO (NovaFilm) + MVO (LostFilm) + Original + Subs (Rus, Eng) 

Цитировать
Сверхъестественное / Supernatural (7 сезон)7 сезон | 8 сезон | 9 сезон
Год выпуска: 2011-2012
Страна: США
Жанр: мистика, ужасы, триллер, фэнтези, драма, детектив
Продолжительность: ~ 43 минуты
Перевод 1: Профессиональный (многоголосый закадровый) NovaFilm
Перевод 2: Профессиональный (многоголосый закадровый) LostFilm
Режиссёр: Роберт Сингер, Филип Сгриккиа и др.
В ролях: Джаред Падалеки, Дженсен Эклз, Миша Коллинз, Джим Бивер, Марк Шеппард, Марк Пеллегрино, Джеймс Патрик Стюарт, Фелиция Дэй, Кевин МакНэлли и др.
Описание: В седьмом сезоне Винчестерам предстоит противостоять одним из самых зловещих существ чистилища - Левиафанам - страшным существам с черной жидкостью вместо крови. Их тяжело убить, они могут принять любое обличье и быстро распространяются по Америке. Старые трюки и оружие не может навредить им. Убежища не могут спасти. Все, что у них остаётся это они сами, и они не сдадутся без боя…-Все раздачи сериала
Сэмпл-Качество: BDRip 720p
Контейнер: MKV
Видео: 1280x720, 23.976 fps, crf=16, 6000 - 8000 Kbps avg, 0.320 bit/pixel
Аудио 1: AC3 5.1, 48 KHz, 640 kbps (NovaFilm)
Аудио 2: AC3 5.1, 48 KHz, 384 kbps (LostFilm)
Аудио 3: DTS 5.1, 48 KHz, 1509 kbps (Original)
Субтитры: русские, английские-

Список серий

1. Встречайте Нового Босса (англ "Meet the New Boss")
2. Привет, Жестокий Мир (англ. "Hello, Cruel World")
3. Соседка (англ. "The Girl Next Door")
4. Защищая Свою Жизнь (англ. "Defending Your Life")
5. Заткнись, Доктор Фил (англ. "Shut Up, Dr. Phil")
6. Убийственное Чтиво (англ. "Slash Fiction")
7. Менталисты (англ. "The Mentalists")
8. Седьмой Сезон, Пришло Время Свадьбы! (англ. "Season Seven, Time for a Wedding!")
9. Как Завоевать Друзей и Подчинить Монстров (англ. "How to Win Friends and Influence Monsters)
10. Дверь Смерти (англ. "Death's Door")
11. Приключения Няни (англ. "Adventures in Babysitting")
12. Путешествие Во Времени (англ. "Time After Time")
13. Убивашки (англ. "The Slice Girls")
14. Волшебный зверинец Плаки Свистуна (англ. "Plucky Pennywhistle's Magical Menagerie")
15. Потрошитель (англ. "Repo Man")
16. Долой Старое (англ. "Out With The Old")
17. Идентификация Реборна (англ. "The Born Again Identity")
18. Жги, Гарт! (англ. "Party on, Garth")
19. Вопрос Жизни и Смерти (англ. "Of Grave Importance")
20. Девушка с Татуировкой Подземелий и Драконов (англ. "The Girl with the Dungeons and Dragons Tattoo")
21. Чтение является Основополагающим (англ. "Reading is Fundamental")
22. И Будет Кровь (англ. "There Will Be Blood")
23. Выживает Сильнейший (англ. "Survival of the Fittest")

MediaInfo

Format: Matroska
File size: 3.11 GiB
Duration: 42mn 20s
Overall bit rate mode: Variable
Overall bit rate: 10.5 Mbps
Encoded date: UTC 2015-01-05 13:44:14
Writing application: mkvmerge v5.8.0 ('No Sleep / Pillow') built on Sep 2 2012 15:37:04
Writing library: libebml v1.2.3 + libmatroska v1.3.0
Video
ID: 1
Format: AVC
Format/Info: Advanced Video Codec
Format profile: High@L4.1
Format settings, CABAC: Yes
Format settings, ReFrames: 5 frames
Codec ID: V_MPEG4/ISO/AVC
Duration: 42mn 19s
Bit rate: 7 065 Kbps
Width: 1 280 pixels
Height: 720 pixels
Display aspect ratio: 16:9
Frame rate mode: Constant
Frame rate: 23.976 fps
Color space: YUV
Chroma subsampling: 4:2:0
Bit depth: 8 bits
Scan type: Progressive
Title: 7.01 Встречайте Нового Босса (англ "Meet the New Boss")
Bits/(Pixel*Frame): 0.320
Stream size: 2.09 GiB
Writing library: x264 core 144 r2525 40bb568
Encoding settings: cabac=1 / ref=5 / deblock=1:-3:-3 / analyse=0x3:0x133 / me=umh / subme=10 / psy=1 / psy_rd=1.00:0.00 / mixed_ref=1 / me_range=24 / chroma_me=1 / trellis=2 / 8x8dct=1 / cqm=0 / deadzone=21,11 / fast_pskip=0 / chroma_qp_offset=-2 / threads=6 / lookahead_threads=1 / sliced_threads=0 / nr=0 / decimate=1 / interlaced=0 / bluray_compat=0 / constrained_intra=0 / bframes=6 / b_pyramid=2 / b_adapt=2 / b_bias=0 / direct=3 / weightb=1 / open_gop=0 / weightp=2 / keyint=240 / keyint_min=23 / scenecut=40 / intra_refresh=0 / rc_lookahead=60 / rc=crf / mbtree=1 / crf=16.0 / qcomp=0.70 / qpmin=0 / qpmax=69 / qpstep=4 / vbv_maxrate=62500 / vbv_bufsize=78125 / crf_max=0.0 / nal_hrd=none / filler=0 / ip_ratio=1.40 / aq=1:0.95
Default: Yes
Forced: No
Audio #1
ID: 2
Format: AC-3
Format/Info: Audio Coding 3
Mode extension: CM (complete main)
Format settings, Endianness: Big
Codec ID: A_AC3
Duration: 42mn 20s
Bit rate mode: Constant
Bit rate: 640 Kbps
Channel(s): 6 channels
Channel positions: Front: L C R, Side: L R, LFE
Sampling rate: 48.0 KHz
Bit depth: 16 bits
Compression mode: Lossy
Stream size: 194 MiB (7%)
Title: DD 5.1 @ 640 kbps @ NovaFilm
Language: Russian
Default: Yes
Forced: No
Audio #2
ID: 3
Format: AC-3
Format/Info: Audio Coding 3
Mode extension: CM (complete main)
Format settings, Endianness: Big
Codec ID: A_AC3
Duration: 42mn 20s
Bit rate mode: Constant
Bit rate: 384 Kbps
Channel(s): 6 channels
Channel positions: Front: L C R, Side: L R, LFE
Sampling rate: 48.0 KHz
Bit depth: 16 bits
Compression mode: Lossy
Stream size: 116 MiB (4%)
Title: DD 5.1 @ 384 kbps @ LostFilm
Language: Russian
Default: No
Forced: No
Audio #3
ID: 4
Format: DTS
Format/Info: Digital Theater Systems
Format profile: MA / Core
Mode: 16
Format settings, Endianness: Big
Codec ID: A_DTS
Duration: 42mn 20s
Bit rate mode: Constant
Bit rate: 1 509 Kbps
Channel(s): 6 channels
Channel positions: Front: L C R, Side: L R, LFE
Sampling rate: 48.0 KHz
Bit depth: 16 bits
Compression mode: Lossless / Lossy
Title: DTS 5.1 @ 1 509 Kbps @ Original
Language: English
Default: No
Forced: No
Text #1
ID: 5
Format: UTF-8
Codec ID: S_TEXT/UTF8
Codec ID/Info: UTF-8 Plain Text
Title: Russian @ SRT @ Злюка
Language: Russian
Default: No
Forced: No
Text #2
ID: 6
Format: UTF-8
Codec ID: S_TEXT/UTF8
Codec ID/Info: UTF-8 Plain Text
Title: English @ SRT
Language: English
Default: No
Forced: No

Скриншоты

Вы не можете начинать темы
Вы не можете отвечать на сообщения
Вы не можете редактировать свои сообщения
Вы не можете удалять свои сообщения
Вы не можете голосовать в опросах
Вы не можете прикреплять файлы к сообщениям
Вы можете скачивать файлы
!ВНИМАНИЕ!

Сайт не предоставляет электронные версии произведений, а занимается лишь коллекционированием и каталогизацией ссылок, присылаемых и публикуемых на форуме нашими читателями. Если вы являетесь правообладателем какого-либо представленного материала и не желаете, чтобы ссылка на него находилась в нашем каталоге, свяжитесь с нами, и мы незамедлительно удалим ее. Файлы для обмена на трекере предоставлены пользователями сайта, и администрация не несет ответственности за их содержание. Просьба не заливать файлы, защищенные авторскими правами, а также файлы нелегального содержания!

Искали программы, игры, дополнения, музыка mp3, аниме, аудио книги, журналы? Добро пожаловать на свободный торрент трекер Torrents, у нас можно скачать бесплатно, без смс и регистрации и прочих ограничений лучшие, отборные сборки программ, игр. Скачать торрентом не составит труда даже не опытному пользователю. Раздачи ежедневно обновляются, только лучшие и качественные раздачи, подробные описания и скриншоты. Огромная коллекция программ для работы со звуком, графикой, дизайном, а так же множество плагинов и инструментов к ним с подробной инструкцией и рекомендациями. Прошивки для навигаторов, карты. Разнообразные игры, для Windows, Linux. В коллекцие есть и старые игры любых жанров, Rpg, Action, Shooter, strategy Множество дополнений, модификаций, сценариев для популярных игр в жанре экш, рпг, гонки, стратегии, логические игры. Множество аддонов и сценариев для Microsoft Flight Simulator Большая коллекция книг, учебников. Если нет возможности купить печатное издание - смело скачивайте цифровую версию книги или, быть может, журнала. Не любите читать - можно загрузить бесплатно аудикнигу. Для веб дизайнеров и программистов так же найдется множество специализированного софта, таких как: редакторы с подсветкой, среды программирования, компоненты, системы управления базами данных, разнообразные скрипты и шаблоны. Не так давно у нас появился материал для автолюбителей и владельцев мото - оригинальные и неоригинальные каталоги запчастей, книги и журналы по ремонту и обслуживанию, видеоуроки, статьи по чип тюнингу, прошивкам. Процедура получения контента элементарная, достаточно просто скачать торрент файл и добавить его в загрузку в вашем торрент клиенте. Если у вас нет специального торрент клиента, вы можете его скачать у нас.