Сверхъестественное / Supernatural / Сезон: 6 / Серии: 1-22 (22) (Филип Сгриккиа, Роберт Сингер) [2010, США, мистика, ужасы, триллер, драма, детектив, BDRip 720p] MVO (NovaFilm) + MVO (LostFilm) + Dub (Ren-TV) + Original + Subs (3xRus, Eng) 

Цитировать
Сверхъестественное / Supernatural
Сезон 1 - BDRip 720p | Сезон 2 - BDRip 720p | Сезон 3 - BDRip 720p | Сезон 4 - BDRip 720p | Сезон 5 - BDRip 720p | Сезон 6 - BDRip 720p
-
Сверхъестественное / Supernatural [Season 6]
«Небесная справедливость в действии...»
- Год выпуска: 2010-2011
Страна: США
Жанр: мистика, ужасы, триллер, фэнтези, драма, детектив
Продолжительность: ~43 минуты-Перевод 1: Профессиональный (многоголосый закадровый) NovaFilm
Перевод 2: Профессиональный (многоголосый закадровый) LostFilm
Перевод 3: Профессиональный (дублированный) Ren-TV
Режиссёр: Филип Сгриккиа, Роберт Сингер
В ролях: Джаред Падалеки, Дженсен Эклс, Джим Бивер, Миша Коллинз, Джеффри Дин Морган, Женевьев Падалеки, Саманта Феррис, Курт Фуллер, Кэти Кэссиди, Лорен Коэн и др.-Описание:
Когда-то в городе Лоуренс, штат Канзас, вместе со своими малолетними сыновьями, мирно жила чета Винчестеров. Но буквально за один день жизнь этих людей изменилась навсегда, дом сгорел, в огне пожара погибла Мэри Винчестер - любящая мать и любимая жена. Четырехлетний Дин Винчестер вынес из огня своего шестимесячного братишку и с тех пор стал для него ангелом хранителем, готовым на все ради безопасности младшего брата. А Джон Винчестер из простого рабочего гаража, превратился в смелого охотника за нечистью, одержимого идеей отомстить за смерть жены. С этой мыслью он воспитывал своих сыновей, ставших искусными бойцами, сражающимися плечом к плечу с отцом.
И именно из Лоуренса началось бесконечное путешествие семьи Винчестеров по бескрайним просторам Америки в поисках людей, которым необходима помощь, кому не откуда ждать подмоги и не на кого рассчитывать, когда в их жизнь железной поступью ворвалось сверхъестественное.
- -Все раздачи сериала | Sample-Релиз:
by markinscor & Yarik13-
  • За огромную работу, проделанную с субтитрами, спасибо Yarik13
  • Дорожки №1-2 получены путём наложения выделенных голосов на центр DTS HD-MA
--Качество: BDRip 720p
Контейнер: MKV
Видео: 1280x720 (16:9) at 23.976 fps, MPEG-4 AVC, crf 18.2, 4000-7500 kbps avg
Аудио 1: Russian: 48 kHz, DTS 5.1, ~1509.00 kbps avg |NovaFilm|
Аудио 2: Russian: 48 kHz, DTS 5.1, ~1509.00 kbps avg |LostFilm|
Аудио 3: Russian: 48 kHz, AC3, 2/0, ~192.00 kbps avg |Ren-TV|
Аудио 4: English: 48 kHz, DTS 5.1, ~1509.00 kbps avg
Субтитры: Russian (forced), Russian (Zluka), Russian (TrueTranslate), Russian (FarGate), English--

MediaInfo

D:\Supernatural.S06.720p.BDRip.3xRus.Eng.HDCLUB\Supernatural.S06E01.720p.BDRip.3xRus.Eng.HDCLUB.mkv
General
Unique ID : 255156083866673663049515137394444660353 (0xBFF54634AADAD2A2BC84BF4989E8EE81)
Complete name : D:\Supernatural.S06.720p.BDRip.3xRus.Eng.HDCLUB\Supernatural.S06E01.720p.BDRip.3xRus.Eng.HDCLUB.mkv
Format : Matroska
Format version : Version 2
File size : 3.05 GiB
Duration : 42mn 28s
Overall bit rate : 10.3 Mbps
Encoded date : UTC 2013-11-18 14:11:39
Writing application : mkvmerge v5.8.0 ('No Sleep / Pillow') built on Sep 2 2012 15:37:04
Writing library : libebml v1.2.3 + libmatroska v1.3.0
Video #1
ID : 1
Format : AVC
Format/Info : Advanced Video Codec
Format profile : High@L4.1
Format settings, CABAC : Yes
Format settings, ReFrames : 8 frames
Codec ID : V_MPEG4/ISO/AVC
Duration : 42mn 28s
Bit rate : 5 371 Kbps
Width : 1 276 pixels
Height : 720 pixels
Display aspect ratio : 16:9
Frame rate mode : Constant
Frame rate : 23.976 fps
Color space : YUV
Chroma subsampling : 4:2:0
Bit depth : 8 bits
Scan type : Progressive
Bits/(Pixel*Frame) : 0.244
Stream size : 1.59 GiB (52%)
Writing library : x264 core 130 r2273kMod b3065e6
Encoding settings : cabac=1 / ref=8 / deblock=1:-3:-3 / analyse=0x3:0x133 / me=tesa / subme=11 / psy=1 / fade_compensate=0.00 / psy_rd=1.10:0.10 / mixed_ref=1 / me_range=48 / chroma_me=1 / trellis=2 / 8x8dct=1 / cqm=0 / deadzone=21,11 / fast_pskip=0 / chroma_qp_offset=-3 / threads=12 / lookahead_threads=2 / sliced_threads=0 / nr=0 / decimate=1 / interlaced=0 / bluray_compat=0 / constrained_intra=0 / bframes=9 / b_pyramid=2 / b_adapt=2 / b_bias=0 / direct=3 / weightb=1 / open_gop=0 / weightp=2 / keyint=240 / keyint_min=23 / scenecut=40 / intra_refresh=0 / rc_lookahead=60 / rc=crf / mbtree=0 / crf=18.2000 / qcomp=0.70 / qpmin=0 / qpmax=69 / qpstep=4 / vbv_maxrate=50000 / vbv_bufsize=62500 / crf_max=0.0 / nal_hrd=none / ip_ratio=1.40 / pb_ratio=1.30 / aq=1:0.60
Language : English
Default : Yes
Forced : No
Audio #2
ID : 2
Format : DTS
Format/Info : Digital Theater Systems
Mode : 16
Format settings, Endianness : Big
Codec ID : A_DTS
Duration : 42mn 28s
Bit rate mode : Constant
Bit rate : 1 509 Kbps
Channel count : 6 channels
Channel positions : Front: L C R, Side: L R, LFE
Sampling rate : 48.0 KHz
Bit depth : 16 bits
Compression mode : Lossy
Stream size : 458 MiB (15%)
Title : MVO NovaFilm
Language : Russian
Default : Yes
Forced : No
Audio #3
ID : 3
Format : DTS
Format/Info : Digital Theater Systems
Mode : 16
Format settings, Endianness : Big
Codec ID : A_DTS
Duration : 42mn 28s
Bit rate mode : Constant
Bit rate : 1 509 Kbps
Channel count : 6 channels
Channel positions : Front: L C R, Side: L R, LFE
Sampling rate : 48.0 KHz
Bit depth : 16 bits
Compression mode : Lossy
Stream size : 458 MiB (15%)
Title : MVO LostFilm
Language : Russian
Default : No
Forced : No
Audio #4
ID : 4
Format : AC-3
Format/Info : Audio Coding 3
Mode extension : CM (complete main)
Format settings, Endianness : Big
Codec ID : A_AC3
Duration : 42mn 28s
Bit rate mode : Constant
Bit rate : 192 Kbps
Channel count : 2 channels
Channel positions : Front: L R
Sampling rate : 48.0 KHz
Bit depth : 16 bits
Compression mode : Lossy
Stream size : 58.3 MiB (2%)
Title : DUB Ren-Tv
Language : Russian
Default : No
Forced : No
Audio #5
ID : 5
Format : DTS
Format/Info : Digital Theater Systems
Mode : 16
Format settings, Endianness : Big
Codec ID : A_DTS
Duration : 42mn 28s
Bit rate mode : Constant
Bit rate : 1 509 Kbps
Channel count : 6 channels
Channel positions : Front: L C R, Side: L R, LFE
Sampling rate : 48.0 KHz
Bit depth : 16 bits
Compression mode : Lossy
Stream size : 458 MiB (15%)
Language : English
Default : No
Forced : No
Text #6
ID : 6
Format : ASS
Codec ID : S_TEXT/ASS
Codec ID/Info : Advanced Sub Station Alpha
Compression mode : Lossless
Title : forced
Language : Russian
Default : Yes
Forced : No
Text #7
ID : 7
Format : UTF-8
Codec ID : S_TEXT/UTF8
Codec ID/Info : UTF-8 Plain Text
Title : Zluka
Language : Russian
Default : No
Forced : No
Text #8
ID : 8
Format : UTF-8
Codec ID : S_TEXT/UTF8
Codec ID/Info : UTF-8 Plain Text
Title : TrueTranslate
Language : Russian
Default : No
Forced : No
Text #9
ID : 9
Format : UTF-8
Codec ID : S_TEXT/UTF8
Codec ID/Info : UTF-8 Plain Text
Title : FarGate
Language : Russian
Default : No
Forced : No
Text #10
ID : 10
Format : UTF-8
Codec ID : S_TEXT/UTF8
Codec ID/Info : UTF-8 Plain Text
Language : English
Default : No
Forced : No

Список серий

Episode 1: Exile on Main Street / Семейные Узы
Episode 2: Two and a Half Men / Два с Половиной Человека
Episode 3: The Third Man / Третий Человек
Episode 4: Weekend at Bobby's / Уикенд у Бобби
Episode 5: Live Free or Twihard / Крепкий Орешек Сумерек
Episode 6: You Can't Handle the Truth / Невыносимая Правда
Episode 7: Family Matters / Дела Семейные
Episode 8: All Dogs Go To Heaven / Все Собаки Попадают в Рай
Episode 9: Clap Your Hands If You Believe / Если Верите, Хлопайте в Ладоши!
Episode 10: Caged Heat / Ад за Решеткой
Episode 11: Appointment in Samarra / Свидание в Самарре
Episode 12: Like a Virgin / Невинность
Episode 13: Unforgiven / Непрощенный
Episode 14: The Reckoning / Манекен 3: Расплата
Episode 15: The French Mistake / Французская Оплошность
Episode 16: ...And Then There Were Non / ...И Никого Не Стало
Episode 17: My Heart Will Go On / Моё Сердце Биться Не Перестанет
Episode 18: Frontierland / Приграничная Страна
Episode 19: Mommy Dearest / Любимая Мамочка
Episode 20: The Man Who Would Be King / Тот, Кто Хотел Стать Королём
Episode 21: Let It Bleed / Да Прольётся Кровь
Episode 22: The Man Who Knew Too Much / Тот, Кто Слишком Много Знал

Скриншоты

-
Вы не можете начинать темы
Вы не можете отвечать на сообщения
Вы не можете редактировать свои сообщения
Вы не можете удалять свои сообщения
Вы не можете голосовать в опросах
Вы не можете прикреплять файлы к сообщениям
Вы можете скачивать файлы
!ВНИМАНИЕ!

Сайт не предоставляет электронные версии произведений, а занимается лишь коллекционированием и каталогизацией ссылок, присылаемых и публикуемых на форуме нашими читателями. Если вы являетесь правообладателем какого-либо представленного материала и не желаете, чтобы ссылка на него находилась в нашем каталоге, свяжитесь с нами, и мы незамедлительно удалим ее. Файлы для обмена на трекере предоставлены пользователями сайта, и администрация не несет ответственности за их содержание. Просьба не заливать файлы, защищенные авторскими правами, а также файлы нелегального содержания!

Искали программы, игры, дополнения, музыка mp3, аниме, аудио книги, журналы? Добро пожаловать на свободный торрент трекер Torrents, у нас можно скачать бесплатно, без смс и регистрации и прочих ограничений лучшие, отборные сборки программ, игр. Скачать торрентом не составит труда даже не опытному пользователю. Раздачи ежедневно обновляются, только лучшие и качественные раздачи, подробные описания и скриншоты. Огромная коллекция программ для работы со звуком, графикой, дизайном, а так же множество плагинов и инструментов к ним с подробной инструкцией и рекомендациями. Прошивки для навигаторов, карты. Разнообразные игры, для Windows, Linux. В коллекцие есть и старые игры любых жанров, Rpg, Action, Shooter, strategy Множество дополнений, модификаций, сценариев для популярных игр в жанре экш, рпг, гонки, стратегии, логические игры. Множество аддонов и сценариев для Microsoft Flight Simulator Большая коллекция книг, учебников. Если нет возможности купить печатное издание - смело скачивайте цифровую версию книги или, быть может, журнала. Не любите читать - можно загрузить бесплатно аудикнигу. Для веб дизайнеров и программистов так же найдется множество специализированного софта, таких как: редакторы с подсветкой, среды программирования, компоненты, системы управления базами данных, разнообразные скрипты и шаблоны. Не так давно у нас появился материал для автолюбителей и владельцев мото - оригинальные и неоригинальные каталоги запчастей, книги и журналы по ремонту и обслуживанию, видеоуроки, статьи по чип тюнингу, прошивкам. Процедура получения контента элементарная, достаточно просто скачать торрент файл и добавить его в загрузку в вашем торрент клиенте. Если у вас нет специального торрент клиента, вы можете его скачать у нас.