(Score/Soundtrack) [CD] Терминатор / The Terminator (by Brad Fiedel, Tahnee Cain And Tryanglz, Jay Ferguson, Linn Van Hek) - 1991 (1984), FLAC (tracks+.cue), lossless 

Цитировать
Терминатор / The Terminator
Жанр: Score, Soundtrack
Композитор: Brad Fiedel, Tahnee Cain And Tryanglz, Jay Ferguson, Linn Van Hek
Год выпуска диска: 1991
Год выпуска фильма: 1984
Страна исполнителя: US
Издатель (лейбл): DCC Compact Classics
Номер по каталогу: DZS-058
Аудиокодек: FLAC (*.flac)
Тип рипа: tracks
Битрейт аудио: lossless
Продолжительность: 00:35:34
Источник: RED "Subcollect"
Наличие сканов в содержимом раздачи: фото
Discogs: discogs.com

.
.
.

Треклист

01. Brad Fiedel - The Terminator Theme (4:22)
02. Brad Fiedel - Terminator Arrival (2:35)
03. Brad Fiedel - Tunnel Chase (2:50)
04. Brad Fiedel - Love Scene (1:16)
05. Brad Fiedel - Future Remembered (2:29)
06. Brad Fiedel - Factory Chase (3:53)
07. Tahnee Cain And Tryanglz - You Can't Do That (3:27)
08. Tahnee Cain And Tryanglz - Burnin' In The Third Degree (3:33)
09. Jay Ferguson And 16mm - Pictures Of You (3:58)
10. Tahnee Cain And Tryanglz - Photoplay (3:33)
11. Linn Van Hek - Intimacy (3:36)
Duration: 00:35:34

Лог создания рипа

Exact Audio Copy V1.3 from 2. September 2016
EAC extraction logfile from 23. October 2018, 20:42
Various / The Terminator Original Soundtrack
Used drive : hp CDDVDW TS-H653R Adapter: 1 ID: 0
Read mode : SecureUtilize accurate stream : YesDefeat audio cache : YesMake use of C2 pointers : No
Read offset correction : 6Overread into Lead-In and Lead-Out : NoFill up missing offset samples with silence : YesDelete leading and trailing silent blocks : NoNull samples used in CRC calculations : YesUsed interface : Native Win32 interface for Win NT & 2000Gap handling : Appended to previous track
Used output format : User Defined EncoderSelected bitrate : 1024 kBit/sQuality : HighAdd ID3 tag : NoCommand line compressor : C:\Program Files (x86)\Exact Audio Copy\Flac\flac.exeAdditional command line options : -8 -V -T "ARTIST=%artist%" -T "TITLE=%title%" -T "ALBUM=%albumtitle%" -T "DATE=%year%" -T "TRACKNUMBER=%tracknr%" -T "GENRE=%genre%" -T "PERFORMER=%albuminterpret%" -T "COMPOSER=%composer%" %haslyrics%--tag-from-file=LYRICS="%lyricsfile%"%haslyrics% -T "ALBUMARTIST=%albumartist%" -T "DISCNUMBER=%cdnumber%" -T "TOTALDISCS=%totalcds%" -T "TOTALTRACKS=%numtracks%" -T "COMMENT=%comment%" %source% -o %dest%
TOC of the extracted CD
Track | Start | Length | Start sector | End sector --------------------------------------------------------- 1 | 0:00.00 | 4:21.72 | 0 | 19646 2 | 4:21.72 | 2:35.20 | 19647 | 31291 3 | 6:57.17 | 2:49.70 | 31292 | 44036 4 | 9:47.12 | 1:16.25 | 44037 | 49761 5 | 11:03.37 | 2:29.25 | 49762 | 60961 6 | 13:32.62 | 3:53.30 | 60962 | 78466 7 | 17:26.17 | 3:26.48 | 78467 | 93964 8 | 20:52.65 | 3:33.27 | 93965 | 109966 9 | 24:26.17 | 3:58.00 | 109967 | 127816 10 | 28:24.17 | 3:33.33 | 127817 | 143824 11 | 31:57.50 | 3:35.70 | 143825 | 160019
Track 1
Filename G:\FLAC Rips\Various Artists - The Terminator Original Soundtrack (1991) [FLAC]\01 - Brad Fiedel - The Terminator Theme.wav
Pre-gap length 0:00:02.00
Peak level 100.0 % Extraction speed 1.6 X Track quality 99.9 % Test CRC 9F23C72B Copy CRC 9F23C72B Accurately ripped (confidence 3) [2FE59D88] (AR v2) Copy OK
Track 2
Filename G:\FLAC Rips\Various Artists - The Terminator Original Soundtrack (1991) [FLAC]\02 - Brad Fiedel - Terminator Arrival.wav
Pre-gap length 0:00:02.20
Peak level 80.7 % Extraction speed 1.8 X Track quality 100.0 % Test CRC 12C23F62 Copy CRC 12C23F62 Accurately ripped (confidence 3) [E101BBAD] (AR v2) Copy OK
Track 3
Filename G:\FLAC Rips\Various Artists - The Terminator Original Soundtrack (1991) [FLAC]\03 - Brad Fiedel - Tunnel Chase.wav
Pre-gap length 0:00:01.45
Peak level 99.9 % Extraction speed 1.9 X Track quality 100.0 % Test CRC 652056D1 Copy CRC 652056D1 Accurately ripped (confidence 3) [0029954A] (AR v2) Copy OK
Track 4
Filename G:\FLAC Rips\Various Artists - The Terminator Original Soundtrack (1991) [FLAC]\04 - Brad Fiedel - Love Scene.wav
Pre-gap length 0:00:02.10
Peak level 58.7 % Extraction speed 1.2 X Track quality 99.8 % Test CRC 5FAD9D63 Copy CRC 5FAD9D63 Accurately ripped (confidence 3) [6C2CAB54] (AR v2) Copy OK
Track 5
Filename G:\FLAC Rips\Various Artists - The Terminator Original Soundtrack (1991) [FLAC]\05 - Brad Fiedel - Future Remembered.wav
Pre-gap length 0:00:02.57
Peak level 62.6 % Extraction speed 2.0 X Track quality 100.0 % Test CRC 5A2FBCFC Copy CRC 5A2FBCFC Accurately ripped (confidence 3) [56EFB2DF] (AR v2) Copy OK
Track 6
Filename G:\FLAC Rips\Various Artists - The Terminator Original Soundtrack (1991) [FLAC]\06 - Brad Fiedel - Factory Chase.wav
Pre-gap length 0:00:01.02
Peak level 100.0 % Extraction speed 2.0 X Track quality 99.9 % Test CRC AB4240B8 Copy CRC AB4240B8 Accurately ripped (confidence 3) [E0F034BD] (AR v2) Copy OK
Track 7
Filename G:\FLAC Rips\Various Artists - The Terminator Original Soundtrack (1991) [FLAC]\07 - Tahnee Cain And Tryanglz - You Can't Do That.wav
Pre-gap length 0:00:03.27
Peak level 93.2 % Extraction speed 2.4 X Track quality 100.0 % Test CRC 3F2B5B64 Copy CRC 3F2B5B64 Accurately ripped (confidence 3) [37DB9473] (AR v2) Copy OK
Track 8
Filename G:\FLAC Rips\Various Artists - The Terminator Original Soundtrack (1991) [FLAC]\08 - Tahnee Cain And Tryanglz - Burnin' In The Third Degree.wav
Pre-gap length 0:00:02.28
Peak level 88.0 % Extraction speed 2.5 X Track quality 100.0 % Test CRC 924C57F6 Copy CRC 924C57F6 Accurately ripped (confidence 3) [C9DCB747] (AR v2) Copy OK
Track 9
Filename G:\FLAC Rips\Various Artists - The Terminator Original Soundtrack (1991) [FLAC]\09 - Jay Ferguson And 16mm - Pictures Of You.wav
Pre-gap length 0:00:02.12
Peak level 91.3 % Extraction speed 2.7 X Track quality 100.0 % Test CRC 860AF288 Copy CRC 860AF288 Accurately ripped (confidence 3) [A7F9BB36] (AR v2) Copy OK
Track 10
Filename G:\FLAC Rips\Various Artists - The Terminator Original Soundtrack (1991) [FLAC]\10 - Tahnee Cain And Tryanglz - Photoplay.wav
Pre-gap length 0:00:01.35
Peak level 96.2 % Extraction speed 2.2 X Track quality 99.9 % Test CRC 3DF29F94 Copy CRC 3DF29F94 Accurately ripped (confidence 3) [FCF0CA5A] (AR v2) Copy OK
Track 11
Filename G:\FLAC Rips\Various Artists - The Terminator Original Soundtrack (1991) [FLAC]\11 - Linn Van Hek - Intimacy.wav
Pre-gap length 0:00:02.23
Peak level 99.3 % Extraction speed 2.9 X Track quality 100.0 % Test CRC 8CF385F4 Copy CRC 8CF385F4 Accurately ripped (confidence 2) [E98610DF] (AR v2) Copy OK
All tracks accurately ripped
No errors occurred
End of status report
---- CUETools DB Plugin V2.1.6
[CTDB TOCID: fN3QRqGmoACheSVvwrc53g9N76w-] foundSubmit result: fN3QRqGmoACheSVvwrc53g9N76w- has been confirmedTrack | CTDB Status 1 | (10/10) Accurately ripped 2 | (10/10) Accurately ripped 3 | (10/10) Accurately ripped 4 | (10/10) Accurately ripped 5 | (10/10) Accurately ripped 6 | (10/10) Accurately ripped 7 | (10/10) Accurately ripped 8 | (10/10) Accurately ripped 9 | (10/10) Accurately ripped 10 | (10/10) Accurately ripped 11 | (10/10) Accurately ripped
==== Log checksum 4C2271A59E80393CF403A6F781769B98617C970C35B404E38CAB7D50E77B2D9D ====

Содержание индексной карты (.CUE)

REM GENRE SoundtrackREM DATE 1984REM DISCID 9D08550BREM COMMENT "ExactAudioCopy v1.3"CATALOG 0000000000000PERFORMER "Various"TITLE "The Terminator Original Soundtrack"REM COMPOSER ""FILE "01 - Brad Fiedel - The Terminator Theme.wav" WAVE  TRACK 01 AUDIO    TITLE "The Terminator Theme"    PERFORMER "Brad Fiedel"    REM COMPOSER ""    INDEX 01 00:00:00  TRACK 02 AUDIO    TITLE "Terminator Arrival"    PERFORMER "Brad Fiedel"    REM COMPOSER ""    INDEX 00 04:19:52FILE "02 - Brad Fiedel - Terminator Arrival.wav" WAVE    INDEX 01 00:00:00  TRACK 03 AUDIO    TITLE "Tunnel Chase"    PERFORMER "Brad Fiedel"    REM COMPOSER ""    INDEX 00 02:33:50FILE "03 - Brad Fiedel - Tunnel Chase.wav" WAVE    INDEX 01 00:00:00  TRACK 04 AUDIO    TITLE "Love Scene"    PERFORMER "Brad Fiedel"    REM COMPOSER ""    INDEX 00 02:47:60FILE "04 - Brad Fiedel - Love Scene.wav" WAVE    INDEX 01 00:00:00  TRACK 05 AUDIO    TITLE "Future Remembered"    PERFORMER "Brad Fiedel"    REM COMPOSER ""    INDEX 00 01:13:43FILE "05 - Brad Fiedel - Future Remembered.wav" WAVE    INDEX 01 00:00:00  TRACK 06 AUDIO    TITLE "Factory Chase"    PERFORMER "Brad Fiedel"    REM COMPOSER ""    INDEX 00 02:28:23FILE "06 - Brad Fiedel - Factory Chase.wav" WAVE    INDEX 01 00:00:00  TRACK 07 AUDIO    TITLE "You Can't Do That"    PERFORMER "Tahnee Cain And Tryanglz"    REM COMPOSER ""    INDEX 00 03:50:03FILE "07 - Tahnee Cain And Tryanglz - You Can't Do That.wav" WAVE    INDEX 01 00:00:00  TRACK 08 AUDIO    TITLE "Burnin' In The Third Degree"    PERFORMER "Tahnee Cain And Tryanglz"    REM COMPOSER ""    INDEX 00 03:24:20FILE "08 - Tahnee Cain And Tryanglz - Burnin' In The Third Degree.wav" WAVE    INDEX 01 00:00:00  TRACK 09 AUDIO    TITLE "Pictures Of You"    PERFORMER "Jay Ferguson And 16mm"    REM COMPOSER ""    INDEX 00 03:31:15FILE "09 - Jay Ferguson And 16mm - Pictures Of You.wav" WAVE    INDEX 01 00:00:00  TRACK 10 AUDIO    TITLE "Photoplay"    PERFORMER "Tahnee Cain And Tryanglz"    REM COMPOSER ""    INDEX 00 03:56:40FILE "10 - Tahnee Cain And Tryanglz - Photoplay.wav" WAVE    INDEX 01 00:00:00  TRACK 11 AUDIO    TITLE "Intimacy"    PERFORMER "Linn Van Hek"    REM COMPOSER ""    INDEX 00 03:31:10FILE "11 - Linn Van Hek - Intimacy.wav" WAVE    INDEX 01 00:00:00
Вы не можете начинать темы
Вы не можете отвечать на сообщения
Вы не можете редактировать свои сообщения
Вы не можете удалять свои сообщения
Вы не можете голосовать в опросах
Вы не можете прикреплять файлы к сообщениям
Вы можете скачивать файлы
!ВНИМАНИЕ!

Сайт не предоставляет электронные версии произведений, а занимается лишь коллекционированием и каталогизацией ссылок, присылаемых и публикуемых на форуме нашими читателями. Если вы являетесь правообладателем какого-либо представленного материала и не желаете, чтобы ссылка на него находилась в нашем каталоге, свяжитесь с нами, и мы незамедлительно удалим ее. Файлы для обмена на трекере предоставлены пользователями сайта, и администрация не несет ответственности за их содержание. Просьба не заливать файлы, защищенные авторскими правами, а также файлы нелегального содержания!

Искали программы, игры, дополнения, музыка mp3, аниме, аудио книги, журналы? Добро пожаловать на свободный торрент трекер Torrents, у нас можно скачать бесплатно, без смс и регистрации и прочих ограничений лучшие, отборные сборки программ, игр. Скачать торрентом не составит труда даже не опытному пользователю. Раздачи ежедневно обновляются, только лучшие и качественные раздачи, подробные описания и скриншоты. Огромная коллекция программ для работы со звуком, графикой, дизайном, а так же множество плагинов и инструментов к ним с подробной инструкцией и рекомендациями. Прошивки для навигаторов, карты. Разнообразные игры, для Windows, Linux. В коллекцие есть и старые игры любых жанров, Rpg, Action, Shooter, strategy Множество дополнений, модификаций, сценариев для популярных игр в жанре экш, рпг, гонки, стратегии, логические игры. Множество аддонов и сценариев для Microsoft Flight Simulator Большая коллекция книг, учебников. Если нет возможности купить печатное издание - смело скачивайте цифровую версию книги или, быть может, журнала. Не любите читать - можно загрузить бесплатно аудикнигу. Для веб дизайнеров и программистов так же найдется множество специализированного софта, таких как: редакторы с подсветкой, среды программирования, компоненты, системы управления базами данных, разнообразные скрипты и шаблоны. Не так давно у нас появился материал для автолюбителей и владельцев мото - оригинальные и неоригинальные каталоги запчастей, книги и журналы по ремонту и обслуживанию, видеоуроки, статьи по чип тюнингу, прошивкам. Процедура получения контента элементарная, достаточно просто скачать торрент файл и добавить его в загрузку в вашем торрент клиенте. Если у вас нет специального торрент клиента, вы можете его скачать у нас.