Сверхъестественное / Supernatural / Сезон: 8 / Серии: 1-23 (23) (Eric Kripke / Эрик Крипке, Robert Singer / Роберт Сингер) [2012-2013, США, ужасы, фэнтези, триллер, драма, WEB-DL 1080p] MVO (LostFilm) + Original + Subs (Rus, Eng) 

Цитировать
Сверхъестественное / Supernatural
Год выпуска: 2012-2013
Страна: США
Жанр: ужасы, фэнтези, триллер, драма, детектив
Продолжительность серии: 23 x 41 мин.
Перевод:
Профессиональный (многоголосый закадровый) |LostFilm|
Субтитры:
русские (FarGate)
английские
Режиссёр: Eric Kripke / Эрик Крипке, Robert Singer / Роберт Сингер
В ролях: Jared Padalecki / Джаред Падалеки, Jensen Ackles / Дженсен Эклс, Jim Beaver / Джим Бивер, Misha Collins / Миша Коллинз, Jeffrey Dean Morgan / Джеффри Дин Морган, Genevieve Padalecki / Женевьев Падалеки, Mark Sheppard / Марк Шеппард, Cindy Sampson / Синди Сэмпсон, Samantha Ferris / Саманта Феррис, Mitch Pileggi / Митч Пилледжи
Описание: Сериал рассказывает о приключениях братьев Сэма и Дина Винчестеров, которые путешествуют по Соединённым Штатам на чёрном автомобиле Chevrolet Impala 1967 года, расследуют паранормальные явления, многие из которых основаны на американских городских легендах и фольклоре, и сражаются с порождениями зла, такими как демоны и призраки.

Предыдущие и альтернативные раздачи
Качество: WEB-DL 1080p
Формат: MKV
Видео кодек: AVC
Аудио кодек: AC3
Видео: AVC, 1920x1080, 23.976 fps, ~4967 kbps, ~0.181 bit/pixel
Аудио #1: Russian | 48 kHz, AC3 | 3/2 (L,C,R,l,r) + LFE ch | 384 kbps avg | LostFilm
Аудио #2: English | 48 kHz, AC3 | 3/2 (L,C,R,l,r) + LFE ch | 384 kbps avg | Original
Субтитры: русские FarGate, английские

Список серий

Ep - LostFilm / Orig translate / Orig ep name
01 - Поговорим о Кевине / Есть разговор о Кевине / We Need to Talk About Kevin
02 - Вам слово, мамочка / Что такое, мать-тигрица? / What's Up, Tiger Mommy?
03 - Сердечные муки / Сердечные страдания / Heartache
04 - Укушенный / Укушенный / Bitten
05 - Брат по крови / Брат по крови / Blood Brother
06 - Утоли мои печали / Южное гостеприимство / Southern Comfort
07 - Кусочек Кевина / Кусочек Кевина / A Little Slice of Kevin
08 - Отважный охотник / Бесстрашные охотники / Hunteri Heroici
09 - Гражданин Клык / Гражданин Клык / Citizen Fang
10 - На перепутье / Побитые жизнью / Torn and Frayed
11 - Ролевая игра и настоящая девчонка / Ролевая игра и настоящая девушка / LARP and the Real Girl
12 - А время летит / С течением времени / As Time Goes By
13 - Все ненавидят Гитлера / Все ненавидят Гитлера / Everybody Hates Hitler
14 - Метод проб и ошибок / Метод проб и ошибок / Trial and Error
15 - Человек собаке друг...и даже больше / Друг с привилегиями / Man's Best Friend With Benefits
16 - Вспоминая Титанов / Вспоминая Титанов / Remember the Titans
17 - Прощай, странник / Прощай, незнакомец / Goodbye Stranger
18 - Братаны и ботаны / Чудики и чокнутые / Freaks and Geeks
19 - Перевозчик / Таксист / Taxi Driver
20 - Игромания / Лихорадка Пакмана / Pac-Man Fever
21 - Великий беглец / Великий беглец / The Great Escapist
22 - Дела минувшие / Клип-Шоу / Clip Show
23 - Жертва / Жертва / Sacrifice

MI

Общее
Уникальный идентификатор : 231970349028935239987251682859352083790 (0xAE83DD384F7647C0AA8C1CD900A84D4E)
Полное имя : D:\Supernatural (8 season)\Supernatural 01.mkv
Формат : Matroska
Версия формата : Version 2
Размер файла : 1,74 Гбайт
Продолжительность : 42 м.
Общий поток : 5851 Кбит/сек
Название фильма : Supernatural [Season 8] (2012) - Release for HDCLUB by vlaluk
Дата кодирования : UTC 2012-11-07 01:02:53
Программа кодирования : mkvmerge v5.8.0 ('No Sleep / Pillow') built on Sep 2 2012 15:37:04
Библиотека кодирования : libebml v1.2.3 + libmatroska v1.3.0
Видео
Идентификатор : 1
Формат : AVC
Формат/Информация : Advanced Video Codec
Профиль формата : High@L4.0
Параметр CABAC формата : Да
Параметр ReFrames формата : 4 кадра
Параметр GOP формата : N=2
Идентификатор кодека : V_MPEG4/ISO/AVC
Продолжительность : 42 м.
Битрейт : 4967 Кбит/сек
Ширина : 1920 пикселей
Высота : 1080 пикселей
Соотношение сторон : 16:9
Частота кадров : 23,976 кадра/сек
Цветовое пространство : YUV
Субдискретизация насыщенности : 4:2:0
Битовая глубина : 8 бит
Тип развёртки : Прогрессивная
Бит/(Пиксели*Кадры) : 0.100
Размер потока : 1,47 Гбайт (85%)
Язык : English
Default : Да
Forced : Нет
Основные цвета : BT.709-5, BT.1361, IEC 61966-2-4, SMPTE RP177
Характеристики трансфера : BT.709-5, BT.1361
Коэффициенты матрицы : BT.709-5, BT.1361, IEC 61966-2-4 709, SMPTE RP177
Аудио #1
Идентификатор : 2
Формат : AC-3
Формат/Информация : Audio Coding 3
Расширение режима : CM (complete main)
Идентификатор кодека : A_AC3
Продолжительность : 42 м.
Вид битрейта : Постоянный
Битрейт : 384 Кбит/сек
Каналы : 6 каналов
Расположение каналов : Front: L C R, Side: L R, LFE
Частота : 48,0 КГц
Битовая глубина : 16 бит
Метод сжатия : С потерями
Размер потока : 117 Мбайт (7%)
Заголовок : DD 5.1 @ 384 kbps @ LostFilm
Язык : Russian
Default : Да
Forced : Да
Аудио #2
Идентификатор : 3
Формат : AC-3
Формат/Информация : Audio Coding 3
Расширение режима : CM (complete main)
Идентификатор кодека : A_AC3
Продолжительность : 42 м.
Вид битрейта : Постоянный
Битрейт : 384 Кбит/сек
Каналы : 6 каналов
Расположение каналов : Front: L C R, Side: L R, LFE
Частота : 48,0 КГц
Битовая глубина : 16 бит
Метод сжатия : С потерями
Размер потока : 117 Мбайт (7%)
Заголовок : DD 5.1 @ 384 kbps
Язык : English
Default : Нет
Forced : Нет
Текст #1
Идентификатор : 4
Формат : ASS
Идентификатор кодека : S_TEXT/ASS
Идентификатор кодека/Информация : Advanced Sub Station Alpha
Метод сжатия : Без потерь
Заголовок : Russian @ ASS @ Forced
Язык : Russian
Default : Да
Forced : Нет
Текст #2
Идентификатор : 5
Формат : UTF-8
Идентификатор кодека : S_TEXT/UTF8
Идентификатор кодека/Информация : UTF-8 Plain Text
Заголовок : Russian @ SRT @ Fargate
Язык : Russian
Default : Нет
Forced : Нет
Текст #3
Идентификатор : 6
Формат : UTF-8
Идентификатор кодека : S_TEXT/UTF8
Идентификатор кодека/Информация : UTF-8 Plain Text
Заголовок : English @ SRT
Язык : English
Default : Нет
Forced : Нет

Скриншоты

Вы не можете начинать темы
Вы не можете отвечать на сообщения
Вы не можете редактировать свои сообщения
Вы не можете удалять свои сообщения
Вы не можете голосовать в опросах
Вы не можете прикреплять файлы к сообщениям
Вы можете скачивать файлы
!ВНИМАНИЕ!

Сайт не предоставляет электронные версии произведений, а занимается лишь коллекционированием и каталогизацией ссылок, присылаемых и публикуемых на форуме нашими читателями. Если вы являетесь правообладателем какого-либо представленного материала и не желаете, чтобы ссылка на него находилась в нашем каталоге, свяжитесь с нами, и мы незамедлительно удалим ее. Файлы для обмена на трекере предоставлены пользователями сайта, и администрация не несет ответственности за их содержание. Просьба не заливать файлы, защищенные авторскими правами, а также файлы нелегального содержания!

Искали программы, игры, дополнения, музыка mp3, аниме, аудио книги, журналы? Добро пожаловать на свободный торрент трекер Torrents, у нас можно скачать бесплатно, без смс и регистрации и прочих ограничений лучшие, отборные сборки программ, игр. Скачать торрентом не составит труда даже не опытному пользователю. Раздачи ежедневно обновляются, только лучшие и качественные раздачи, подробные описания и скриншоты. Огромная коллекция программ для работы со звуком, графикой, дизайном, а так же множество плагинов и инструментов к ним с подробной инструкцией и рекомендациями. Прошивки для навигаторов, карты. Разнообразные игры, для Windows, Linux. В коллекцие есть и старые игры любых жанров, Rpg, Action, Shooter, strategy Множество дополнений, модификаций, сценариев для популярных игр в жанре экш, рпг, гонки, стратегии, логические игры. Множество аддонов и сценариев для Microsoft Flight Simulator Большая коллекция книг, учебников. Если нет возможности купить печатное издание - смело скачивайте цифровую версию книги или, быть может, журнала. Не любите читать - можно загрузить бесплатно аудикнигу. Для веб дизайнеров и программистов так же найдется множество специализированного софта, таких как: редакторы с подсветкой, среды программирования, компоненты, системы управления базами данных, разнообразные скрипты и шаблоны. Не так давно у нас появился материал для автолюбителей и владельцев мото - оригинальные и неоригинальные каталоги запчастей, книги и журналы по ремонту и обслуживанию, видеоуроки, статьи по чип тюнингу, прошивкам. Процедура получения контента элементарная, достаточно просто скачать торрент файл и добавить его в загрузку в вашем торрент клиенте. Если у вас нет специального торрент клиента, вы можете его скачать у нас.